AsTRoNoT - FULLHD Dizi , Film , Klip Forumu Foruma Hoş Geldiniz.
Toplam 1 adet sonuctan sayfa basi 1 ile 1 arasi kadar sonuc gösteriliyor

Konu: Michael Jackson - Smooth Criminal | NRJ Hits-HDTV 1080i-DD2.0 | IboYLDz

  1. #1
    Status
    Offline
    IboYLDz - ait Kullanıcı Resmi (Avatar)
    ÖZEL ÜYE
    Üyelik tarihi
    22.Aralık.2014
    Mesajlar
    287
    Ettiği Teşekkür
    51
    228 mesaja 382 teşekkür aldı

    Michael Jackson - Smooth Criminal | NRJ Hits-HDTV 1080i-DD2.0 | IboYLDz

    Capped IboYLDz



    Kod:
    Format  : MPEG-TS
    File size  : 420 MiB
    Duration  : 9mn 22s
    Overall bit rate mode  : Variable
    Overall bit rate  : 6 269 Kbps
    
    Video
    ID  : 310 (0x136)
    Menu ID  : 8503 (0x2137)
    Format  : AVC
    Format/Info  : Advanced Video Codec
    Format profile  : High@L4.0
    Format settings, CABAC  : Yes
    Format settings, ReFrames  : 4 frames
    Format settings, GOP  : M=8, N=24
    Codec ID  : 27
    Duration  : 9mn 22s
    Bit rate  : 5 765 Kbps
    Width  : 1 920 pixels
    Height  : 1 080 pixels
    Display aspect ratio  : 16:9
    Frame rate  : 25.000 fps
    Standard  : Component
    Color space  : YUV
    Chroma subsampling  : 4:2:0
    Bit depth  : 8 bits
    Scan type  : MBAFF
    Bits/(Pixel*Frame)  : 0.111
    Stream size  : 387 MiB (92%)
    Color primaries  : BT.709
    Transfer characteristics  : BT.709
    Matrix coefficients  : BT.709
    
    Audio
    ID  : 321 (0x141)
    Menu ID  : 8503 (0x2137)
    Format  : AC-3
    Format/Info  : Audio Coding 3
    Mode extension  : CM (complete main)
    Format settings, Endianness  : Big
    Codec ID  : 6
    Duration  : 9mn 22s
    Bit rate mode  : Constant
    Bit rate  : 192 Kbps
    Channel(s)  : 2 channels
    Channel positions  : Front: L R
    Sampling rate  : 48.0 KHz
    Bit depth  : 16 bits
    Compression mode  : Lossy
    Delay relative to video  : -80ms
    Stream size  : 12.9 MiB (3%)
    Language  : French
    https://cloud.mail.ru/public/74ye/gNok19HqD



  2. IboYLDz üyemize teşekkür edenler:
    Astronot (28.Aralık.2015)