AsTRoNoT - FULLHD Dizi , Film , Klip Forumu Foruma Hoş Geldiniz.
Toplam 2 adet sonuctan sayfa basi 1 ile 2 arasi kadar sonuc gösteriliyor

Konu: Enrique Iglesias - Escape | NRJ Hits-HDTV 1080i-DD2.0 | IboYLDz

  1. #1
    Status
    Offline
    IboYLDz - ait Kullanıcı Resmi (Avatar)
    ÖZEL ÜYE
    Üyelik tarihi
    22.Aralık.2014
    Mesajlar
    297
    Ettiği Teşekkür
    52
    234 mesaja 392 teşekkür aldı

    Enrique Iglesias - Escape | NRJ Hits-HDTV 1080i-DD2.0 | IboYLDz

    CappeD IboYLDz



    Kod:
    Format  : MPEG-TS
    File size  : 253 MiB
    Duration  : 3mn 29s
    Overall bit rate mode  : Variable
    Overall bit rate  : 10.2 Mbps
    
    Video
    ID  : 310 (0x136)
    Menu ID  : 8503 (0x2137)
    Format  : AVC
    Format/Info  : Advanced Video Codec
    Format profile  : High@L4.0
    Format settings, CABAC  : Yes
    Format settings, ReFrames  : 4 frames
    Format settings, GOP  : M=8, N=24
    Codec ID  : 27
    Duration  : 3mn 29s
    Bit rate  : 9 468 Kbps
    Width  : 1 920 pixels
    Height  : 1 080 pixels
    Display aspect ratio  : 16:9
    Frame rate  : 25.000 fps
    Standard  : Component
    Color space  : YUV
    Chroma subsampling  : 4:2:0
    Bit depth  : 8 bits
    Scan type  : MBAFF
    Bits/(Pixel*Frame)  : 0.183
    Stream size  : 236 MiB (93%)
    Color primaries  : BT.709
    Transfer characteristics  : BT.709
    Matrix coefficients  : BT.709
    
    Audio
    ID  : 321 (0x141)
    Menu ID  : 8503 (0x2137)
    Format  : AC-3
    Format/Info  : Audio Coding 3
    Mode extension  : CM (complete main)
    Format settings, Endianness  : Big
    Codec ID  : 6
    Duration  : 3mn 29s
    Bit rate mode  : Constant
    Bit rate  : 192 Kbps
    Channel(s)  : 2 channels
    Channel positions  : Front: L R
    Sampling rate  : 48.0 KHz
    Bit depth  : 16 bits
    Compression mode  : Lossy
    Delay relative to video  : -80ms
    Stream size  : 4.79 MiB (2%)
    Language  : French
    https://cloud.mail.ru/public/KU8V/mmCrqLM3e


  2. IboYLDz üyemize teşekkür edenler:
    Astronot (10.Ocak.2016)

  3. #2
    Status
    Offline
    WaRKeR - ait Kullanıcı Resmi (Avatar)
    Senior Member
    Üyelik tarihi
    17.Temmuz.2015
    Nereden
    Ankara
    Mesajlar
    552
    Ettiği Teşekkür
    503
    262 mesaja 402 teşekkür aldı
    Teşekkürler