AsTRoNoT - FULLHD Dizi , Film , Klip Forumu Foruma Hoş Geldiniz.
Toplam 1 adet sonuctan sayfa basi 1 ile 1 arasi kadar sonuc gösteriliyor

Konu: Michael Jackson - They Don't Care About Us | NRJ Hits-HDTV 1080i-DD2.0 | IboYLDz

  1. #1
    Status
    Offline
    IboYLDz - ait Kullanıcı Resmi (Avatar)
    ÖZEL ÜYE
    Üyelik tarihi
    22.Aralık.2014
    Mesajlar
    287
    Ettiği Teşekkür
    51
    228 mesaja 382 teşekkür aldı

    Michael Jackson - They Don't Care About Us | NRJ Hits-HDTV 1080i-DD2.0 | IboYLDz

    CappeD IboYLDz



    Kod:
    Format  : MPEG-TS
    File size  : 355 MiB
    Duration  : 4mn 41s
    Overall bit rate mode  : Variable
    Overall bit rate  : 10.6 Mbps
    
    Video
    ID  : 310 (0x136)
    Menu ID  : 8503 (0x2137)
    Format  : AVC
    Format/Info  : Advanced Video Codec
    Format profile  : High@L4.0
    Format settings, CABAC  : Yes
    Format settings, ReFrames  : 4 frames
    Codec ID  : 27
    Duration  : 4mn 41s
    Bit rate  : 9 856 Kbps
    Width  : 1 920 pixels
    Height  : 1 080 pixels
    Display aspect ratio  : 16:9
    Frame rate  : 25.000 fps
    Standard  : Component
    Color space  : YUV
    Chroma subsampling  : 4:2:0
    Bit depth  : 8 bits
    Scan type  : MBAFF
    Bits/(Pixel*Frame)  : 0.190
    Stream size  : 331 MiB (93%)
    Color primaries  : BT.709
    Transfer characteristics  : BT.709
    Matrix coefficients  : BT.709
    
    Audio
    ID  : 321 (0x141)
    Menu ID  : 8503 (0x2137)
    Format  : AC-3
    Format/Info  : Audio Coding 3
    Mode extension  : CM (complete main)
    Format settings, Endianness  : Big
    Codec ID  : 6
    Duration  : 4mn 41s
    Bit rate mode  : Constant
    Bit rate  : 192 Kbps
    Channel(s)  : 2 channels
    Channel positions  : Front: L R
    Sampling rate  : 48.0 KHz
    Bit depth  : 16 bits
    Compression mode  : Lossy
    Delay relative to video  : -80ms
    Stream size  : 6.45 MiB (2%)
    Language  : French

    https://cloud.mail.ru/public/M2n5/qz7MAuP3v


  2. 2 kişi IboYLDz üyemize teşekkür etti:
    Astronot (10.Ocak.2016),falcon05 (15.Ocak.2016)