AsTRoNoT - FULLHD Dizi , Film , Klip Forumu Foruma Hoş Geldiniz.
Toplam 1 adet sonuctan sayfa basi 1 ile 1 arasi kadar sonuc gösteriliyor

Konu: Ferhat ile Şirin - Bütün Bölümler │ FuLLHD │ 1080p │ 384k │ WaRKeR

  1. #1
    Status
    Offline
    WaRKeR - ait Kullanıcı Resmi (Avatar)
    ÖZEL ÜYE
    Üyelik tarihi
    17.Temmuz.2015
    Nereden
    Ankara
    Mesajlar
    535
    Ettiği Teşekkür
    500
    253 mesaja 388 teşekkür aldı

    Exclamation Ferhat ile Şirin - Bütün Bölümler │ FuLLHD │ 1080p │ 384k │ WaRKeR

    Ferhat ile Şirin
    Bütün Bölümler

    FuLLHD 1080p HD TVRip





    Kapalı Çarşı’nın en kudretli ailelerinden Karalı’ların son temsilcisi Banu, babasından miras kalan işini, soyadını, yuvasını her şeyin önünde tutan güçlü bir kadındır. Ailesinden kalan, gözü gibi baktığı tarihi köşkün tadilatı için kapısını çalan marangoz Ferhat ile görüşür.

    Ferhat ile Şirin Oyuncular

    Cansu Dere – Banu
    Tolga Sarıtaş – Ferhat
    Leyla Tanlar – Şirin
    Yıldıray Şahinler – Hüsrev
    Ushan Çakır – Sadık
    Işıl Yücesoy – Hayriye
    Şehsuvar Aktaş – Salim
    Emel Gölgeçen – Şehnaz
    Alican Barlas – Yiğit
    Nıhan Gür – Sıla

    Ferhat ile Şirin Künye

    Tür: Drama
    Yapım Şirketi: 03 Medya-Artı İstanbul
    Genel Hikaye: Gökhan Horzum
    Yönetmen: Mehmet Ada Öztekin
    Senaryo: Savaş Korkmaz
    Senaryo Süpervizörü: Alican Yaraş


    Kod:
    Format                      : Matroska
    Format version              : Version 4 / Version 2
    File size                   : 4.28 GiB
    Duration                    : 2h 9mn
    Overall bit rate            : 4 726 Kbps
    Encoded date                : UTC 2019-11-23 22:33:17
    Writing application         : mkvmerge v8.5.2 ('Crosses') 64bit
    Writing library             : libebml v1.3.3 + libmatroska v1.4.4
    
    Video
    ID                          : 1
    Format                      : AVC
    Format/Info                 : Advanced Video Codec
    Format profile              : High@L4.1
    Format settings, CABAC      : Yes
    Format settings, ReFrames   : 4 frames
    Codec ID                    : V_MPEG4/ISO/AVC
    Duration                    : 2h 9mn
    Bit rate                    : 4 340 Kbps
    Width                       : 1 920 pixels
    Height                      : 1 080 pixels
    Display aspect ratio        : 16:9
    Frame rate mode             : Constant
    Frame rate                  : 25.000 fps
    Color space                 : YUV
    Chroma subsampling          : 4:2:0
    Bit depth                   : 8 bits
    Scan type                   : Progressive
    Bits/(Pixel*Frame)          : 0.084
    Stream size                 : 3.93 GiB (92%)
    Writing library             : x264 core 148 r2638 7599210
    Encoding settings           : cabac=1 / ref=3 / deblock=1:0:0 / analyse=0x3:0x113 / me=hex / subme=7 / psy=1 / psy_rd=1.00:0.00 / mixed_ref=1 / me_range=16 / chroma_me=1 / trellis=1 / 8x8dct=1 / cqm=0 / deadzone=21,11 / fast_pskip=1 / chroma_qp_offset=-2 / threads=3 / lookahead_threads=1 / sliced_threads=0 / nr=0 / decimate=1 / interlaced=0 / bluray_compat=0 / constrained_intra=0 / bframes=3 / b_pyramid=2 / b_adapt=1 / b_bias=0 / direct=1 / weightb=1 / open_gop=0 / weightp=2 / keyint=250 / keyint_min=25 / scenecut=40 / intra_refresh=0 / rc_lookahead=40 / rc=2pass / mbtree=1 / bitrate=4340 / ratetol=1.0 / qcomp=0.60 / qpmin=0 / qpmax=69 / qpstep=4 / cplxblur=20.0 / qblur=0.5 / vbv_maxrate=62500 / vbv_bufsize=78125 / nal_hrd=none / filler=0 / ip_ratio=1.40 / aq=1:1.00
    Default                     : Yes
    Forced                      : No
    
    Audio
    ID                          : 2
    Format                      : AC-3
    Format/Info                 : Audio Coding 3
    Mode extension              : CM (complete main)
    Format settings, Endianness : Big
    Codec ID                    : A_AC3
    Duration                    : 2h 9mn
    Bit rate mode               : Constant
    Bit rate                    : 384 Kbps
    Channel(s)                  : 2 channels
    Channel positions           : Front: L R
    Sampling rate               : 48.0 KHz
    Frame rate                  : 31.250 fps (1536 spf)
    Compression mode            : Lossy
    Stream size                 : 356 MiB (8%)
    Default                     : Yes
    Forced                      : No






    Video: MPEG4 Video (H264) 1920x1080 25 fps ~4726 KBps,
    Audio: Dolby AC3 48 KHz stereo 384 kbps, 4.28 GB







    03. HQ bölüm eklendi





    >>> V.I.P. üyelere <<<





    >>> Uptobox Premium almak isteyenlere Referansım <<<

    >>> 1fichier Premium almak isteyenlere Referansım <<<


    >>> TurboBit Premium almak isteyenlere Referansım <<<



    Konu WaRKeR tarafından (10.Aralık.2019 Saat 19:33 ) değiştirilmiştir.

    Ey dost!
    Derdin ne olursa olsun
    Umudun her zaman Allah olsun.
    Hz.Mevlana


  2. WaRKeR üyemize teşekkür edenler:
    Lipton (24.Kasım.2019)