AsTRoNoT - FULLHD Dizi , Film , Klip Forumu Foruma Hoş Geldiniz.
Toplam 1 adet sonuctan sayfa basi 1 ile 1 arasi kadar sonuc gösteriliyor

Konu: Mabel - Mad Love | (The Voice HDTV-1080i-MP2-WaRKeR)

  1. #1
    Status
    Offline
    WaRKeR - ait Kullanıcı Resmi (Avatar)
    ÖZEL ÜYE
    Üyelik tarihi
    17.Temmuz.2015
    Nereden
    Ankara
    Mesajlar
    625
    Ettiği Teşekkür
    527
    281 mesaja 431 teşekkür aldı

    Exclamation Mabel - Mad Love | (The Voice HDTV-1080i-MP2-WaRKeR)

    ReC.WaRKeR







    Kod:
    Format                      : MPEG-TS
    File size                   : 156 MiB
    Duration                    : 2 min 45 s
    Overall bit rate mode       : Variable
    Overall bit rate            : 7 903 kb/s
    
    Video
    ID                          : 1205 (0x4B5)
    Menu ID                     : 241 (0xF1)
    Format                      : AVC
    Format/Info                 : Advanced Video Codec
    Format profile              : High@L4.1
    Format settings             : CABAC / 4 Ref Frames
    Format settings, CABAC      : Yes
    Format settings, Reference  : 4 frames
    Codec ID                    : 27
    Duration                    : 2 min 45 s
    Bit rate                    : 7 318 kb/s
    Width                       : 1 920 pixels
    Height                      : 1 080 pixels
    Display aspect ratio        : 16:9
    Frame rate                  : 25.000 FPS
    Color space                 : YUV
    Chroma subsampling          : 4:2:0
    Bit depth                   : 8 bits
    Scan type                   : Interlaced
    Scan type, store method     : Separated fields
    Scan order                  : Top Field First
    Bits/(Pixel*Frame)          : 0.141
    Stream size                 : 144 MiB (93%)
    Color range                 : Limited
    Color primaries             : BT.709
    Transfer characteristics    : BT.709
    Matrix coefficients         : BT.709
    
    Audio
    ID                          : 1206 (0x4B6)
    Menu ID                     : 241 (0xF1)
    Format                      : MPEG Audio
    Format version              : Version 1
    Format profile              : Layer 2
    Codec ID                    : 3
    Duration                    : 2 min 45 s
    Bit rate mode               : Constant
    Bit rate                    : 192 kb/s
    Channel(s)                  : 2 channels
    Sampling rate               : 48.0 kHz
    Frame rate                  : 41.667 FPS (1152 SPF)
    Compression mode            : Lossy
    Delay relative to video     : -80 ms
    Stream size                 : 3.78 MiB (2%)
    Language                    : Bulgarian

    https://drive.google.com/file/d/1eTX...8sKvOtTpZQ5kae


    Ey dost!
    Derdin ne olursa olsun
    Umudun her zaman Allah olsun.
    Hz.Mevlana


  2. 2 kişi WaRKeR üyemize teşekkür etti:
    Astronot (23.Ekim.2021),IboYLDz (26.Ekim.2021)